S.W.A.T.Under.Siege.2017.1080p.BluRay.x264.DTS-WiKi

  • Category Movies
  • Type HD
  • Language English
  • Total size 8.7 GB
  • Uploaded By showstopper
  • Downloads 318
  • Last checked 3 days ago
  • Date uploaded 1 week ago
  • Seeders 24
  • Leechers 22

S.W.A.T. Under Siege

ActionCrimeThriller

A SWAT compound comes under fire from an international terrorist who relentlessly and violently pursues a mystery man who was apprehended by Seattle SWAT after a raid went horribly wrong.

Infohash : 2EB7AFA412228963DBC3C78CF8BF7B33C4628DCE

S.W.A.T.Under.Siege.2017.1080p.BluRay.x264.DTS-WiKi

ImDb: http://www.imdb.com/title/tt6014472



Complete name : S.W.A.T.Under.Siege.2017.1080p.BluRay.x264.DTS-WiKi.mkv
Format : Matroska
Format version : Version 2
File size : 8.71 GiB
Duration : 1 h 29 min
Overall bit rate : 14.0 Mb/s
Encoded date : UTC 2017-08-07 02:12:03
Writing application : mkvmerge v5.8.0 ('No Sleep / Pillow') built on Sep 2 2012 15:37:04
Writing library : libebml v1.2.3 + libmatroska v1.3.0

Video
ID : 1
Format : AVC
Format/Info : Advanced Video Codec
Format profile : [email protected]
Format settings, CABAC : Yes
Format settings, ReFrames : 4 frames
Codec ID : V_MPEG4/ISO/AVC
Duration : 1 h 29 min
Bit rate : 12.5 Mb/s
Width : 1 920 pixels
Height : 1 080 pixels
Display aspect ratio : 16:9
Frame rate mode : Constant
Frame rate : 23.976 (24000/1001) FPS
Color space : YUV
Chroma subsampling : 4:2:0
Bit depth : 8 bits
Scan type : Progressive
Bits/(Pixel*Frame) : 0.251
Stream size : 7.60 GiB (87%)
Writing library : x264 core 124 r2197+666+28 3970b70 tMod+MixAQ [[email protected]:2:0 X86_64]
Encoding settings : cabac=1 / ref=4 / deblock=1:-3:-3 / analyse=0x3:0x133 / me=umh / subme=11 / psy=1 / fade_compensate=0.00 / psy_rd=1.05:0.10 / mixed_ref=1 / me_range=64 / chroma_me=1 / trellis=2 / 8x8dct=1 / cqm=0 / deadzone=21,11 / fast_pskip=0 / chroma_qp_offset=-3 / threads=12 / sliced_threads=0 / nr=0 / decimate=1 / interlaced=0 / bluray_compat=0 / constrained_intra=0 / fgo=0 / bframes=8 / b_pyramid=2 / b_adapt=2 / b_bias=0 / direct=3 / weightb=1 / open_gop=0 / weightp=2 / keyint=250 / keyint_min=23 / scenecut=40 / intra_refresh=0 / rc=2pass / mbtree=0 / bitrate=12500 / ratetol=1.0 / qcomp=0.75 / qpmin=0 / qpmax=69 / qpstep=4 / cplxblur=20.0 / qblur=0.5 / ip_ratio=1.40 / pb_ratio=1.30 / aq=1 / aq-strength=0.75 / aq-sensitivity=10.00 / aq-ifactor=1.00 / aq-pfactor=1.00 / aq-bfactor=1.00 / aq2=0
Language : English
Default : Yes
Forced : No

Audio
ID : 2
Format : DTS
Format/Info : Digital Theater Systems
Mode : 16
Format settings, Endianness : Big
Codec ID : A_DTS
Duration : 1 h 29 min
Bit rate mode : Constant
Bit rate : 1 509 kb/s
Channel(s) : 6 channels
Channel positions : Front: L C R, Side: L R, LFE
Sampling rate : 48.0 kHz
Frame rate : 93.750 FPS (512 spf)
Bit depth : 16 bits
Compression mode : Lossy
Stream size : 961 MiB (11%)
Language : English
Default : Yes
Forced : No

Menu
00:00:00.000 : en:00:00:00.000
00:05:33.041 : en:00:05:33.041
00:12:39.592 : en:00:12:39.592
00:17:26.003 : en:00:17:26.003
00:22:56.917 : en:00:22:56.917
00:28:27.164 : en:00:28:27.164
00:34:30.902 : en:00:34:30.902
00:39:03.508 : en:00:39:03.508
00:45:07.663 : en:00:45:07.663
00:50:48.629 : en:00:50:48.629
00:56:50.907 : en:00:56:50.907
01:02:46.763 : en:01:02:46.763
01:07:09.317 : en:01:07:09.317
01:12:15.540 : en:01:12:15.540
01:16:50.606 : en:01:16:50.606
01:23:16.992 : en:01:23:16.992






Click To View Screenshot

Click To View Screenshot

Click To View Screenshot

Files:

S.W.A.T.Under.Siege.2017.1080p.BluRay.x264.DTS-WiKi
  • S.W.A.T.Under.Siege.2017.1080p.BluRay.x264.DTS-WiKi.mkv (8.7 GB)

There are currently no comments. Feel free to leave one :)

Code:

  • udp://tracker.coppersurfer.tk:6969/announce
  • udp://tracker.pirateparty.gr:6969/announce
  • udp://shadowshq.yi.org:6969/announce
  • udp://eddie4.nl:6969/announce
  • udp://tracker.leechers-paradise.org:6969/announce
  • udp://tracker.opentrackr.org:1337/announce
  • udp://p4p.arenabg.ch:1337/announce
  • udp://p4p.arenabg.com:1337/announce
  • udp://9.rarbg.me:2710/announce
  • udp://9.rarbg.to:2710/announce
  • udp://ipv4.tracker.harry.lu:80/announce
  • udp://tracker.grepler.com:6969/announce
  • udp://public.popcorn-tracker.org:6969/announce
  • udp://tracker.opentrackr.org:1337/announce
  • udp://tracker.zer0day.to:1337/announce